<?xml version="1.0" standalone="no"?>
<!DOCTYPE svg PUBLIC "-//W3C//DTD SVG 1.1//EN" "http://www.w3.org/Graphics/SVG/1.1/DTD/svg11.dtd" >
<svg xmlns="http://www.w3.org/2000/svg">
  <metadata>Created by iconfont</metadata>
  <defs>
  <font id="iconfont" horiz-adv-x="1024">
    <font-face
      font-family="iconfont"
      font-weight="400"
      font-stretch="normal"
      units-per-em="1024"
      ascent="896"
      descent="-128"
    />
      <missing-glyph />
      
      <glyph glyph-name="arrow" unicode="&#58961;" d="M250.709333 750.592c0 19.797333 3.669333 35.84 11.178667 48.128a54.613333 54.613333 0 0 0 29.781333 24.576 71.338667 71.338667 0 0 0 41.472 0c15.36-4.096 30.464-12.970667 45.568-26.624 61.44-55.296 121.514667-108.544 180.224-159.744 58.709333-51.2 113.664-100.693333 164.864-148.48a141.141333 141.141333 0 0 0 43.52-99.328c0.341333-18.432-2.56-36.181333-8.704-53.248s-15.701333-31.402667-28.757333-43.008c-29.354667-26.624-59.392-54.272-90.112-82.944l-92.16-88.064c-30.72-28.672-60.842667-57.173333-90.538667-85.504-29.696-28.330667-58.538667-54.784-86.528-79.36-12.970667-11.605333-26.453333-19.114667-40.448-22.528a66.304 66.304 0 0 0-38.4 1.024 56.149333 56.149333 0 0 0-28.757333 23.552 81.664 81.664 0 0 0-11.178667 45.056c0 23.893333-0.256 56.832-0.597333 98.816-0.341333 41.984-0.512 87.893333-0.512 137.728V750.592z"  horiz-adv-x="1024" />
      
      <glyph glyph-name="youxiang" unicode="&#58886;" d="M862.832 583.008L505.52 376.8 157.136 577.92a100.944 100.944 0 0 0 100.704 94.416H762.56c51.84 0 94.56-39.024 100.32-89.376z m0.624-73.872v-313.92a100.944 100.944 0 0 0-100.944-100.992H257.84a100.944 100.944 0 0 0-100.944 100.944v308.64l332.688-192.096a32.256 32.256 0 0 1 35.184 1.968c0.48 0.192 0.816 0.48 1.296 0.768l337.44 194.688z"  horiz-adv-x="1024" />
      
      <glyph glyph-name="a-dianzan" unicode="&#58897;" d="M142.859375 407.878125v-320.498438c0-30.670313 24.848437-55.51875 55.51875-55.518749H248.328125V462.890625L198.378125 463.3125A55.51875 55.51875 0 0 1 142.859375 407.878125z m653.653125 113.7375l-220.640625-1.392187c10.335938 36.45 15.609375 68.85 15.609375 97.36875 0 64.757813-56.742188 128.123437-113.4 119.896874-49.95-7.25625-55.392187-50.414063-55.392187-104.498437v-48.810938c0-62.690625-52.607813-116.057812-113.610938-121.921875L301.0625 462.257813v-430.439063h434.7a84.628125 84.628125 0 0 1 83.151562 68.892188l60.75 320.45625a84.628125 84.628125 0 0 1-83.151562 100.40625z"  horiz-adv-x="1024" />
      
      <glyph glyph-name="jubao" unicode="&#58895;" d="M512 242.408203a26.499023 26.499023 0 0 1-26.499023-26.555525v-33.166155a26.499023 26.499023 0 1 1 52.998046 0v33.222657A26.499023 26.499023 0 0 1 512 242.408203zM485.500977 480.051897v-198.149414a26.499023 26.499023 0 1 1 52.998046 0V480.051897a26.499023 26.499023 0 1 1-52.998046 0zM880.669782 125.337891L567.823103 669.556641c-13.447266 23.334961-33.618164 36.782227-55.766602 36.782226-21.75293 0-42.319336-13.447266-55.766601-36.725725L143.44322 125.281389a78.875558 78.875558 0 0 1-11.074219-38.364257c0-39.946289 34.804688-58.139648 66.840821-58.139649h625.297851c32.431641 0 66.84082 18.193359 66.84082 58.19615a74.298968 74.298968 0 0 1-10.678711 38.307756z m-41.52832-38.364258c0-5.0851-12.995257-5.537109-14.238281-5.53711H199.605329c-1.582031 0-14.238281 0-14.238281 5.53711 0 3.164063 1.582031 7.514648 4.350586 12.260742l312.451172 544.21875c3.955078 7.119141 7.910156 9.492188 9.887695 9.492188 1.977539 0 5.932617-2.373047 9.887696-9.492188l312.846679-544.21875a27.34654 27.34654 0 0 0 4.350586-12.260742z"  horiz-adv-x="1024" />
      
      <glyph glyph-name="zhanghaoshezhi" unicode="&#58894;" d="M418.9625 334.3875V438.1125l89.55 51.80625 87.1875-49.5c2.41875-2.30625 4.725-4.66875 4.725-7.03125v-99l-91.9125-51.8625-89.55 51.8625z m450.1125-101.30625V537c0 33.01875-16.48125 61.3125-47.08125 77.79375L555.65 768.01875a91.51875 91.51875 0 0 1-91.9125 0L197.45 617.2125c-28.29375-16.5375-47.1375-47.1375-47.1375-77.79375v-304.03125c0-32.9625 16.5375-61.25625 47.1375-77.7375l268.65-150.80625a91.51875 91.51875 0 0 1 91.9125 0l268.65 150.75c25.93125 14.175 42.46875 44.83125 42.46875 75.4875zM671.1875 294.3375L510.875 202.425 350.61875 294.3375V475.8l160.3125 91.9125 160.2-91.9125v-181.4625z"  horiz-adv-x="1024" />
      
      <glyph glyph-name="kehumingxi" unicode="&#58891;" d="M788.773901 754.788574c29.449103 0 53.336775-25.423686 53.336775-56.885498v-627.806152c0-31.35588-23.887672-56.885498-53.336775-56.885498H209.855378C180.406275 13.264392 156.518604 38.741044 156.518604 70.14989V697.956042C156.57157 729.311922 180.406275 754.788574 209.855378 754.788574h578.918523zM482.259584 565.488044c0 41.419422-30.720287 74.999874-68.696919 74.999874-37.923665 0-68.643953-33.580452-68.643953-74.999874 0-24.470298 10.752101-46.186363 27.330462-59.851595L298.997179 440.859015h229.130972L454.929121 505.636449a77.330379 77.330379 0 0 1 27.330463 59.851595z m232.044103-221.344969a1.483049 1.483049 0 0 1-0.423729 1.059321 1.483049 1.483049 0 0 1-1.059319 0.423728H272.9379a1.430082 1.430082 0 0 1-1.430082-1.483049v-59.321935c0-0.847456 0.635592-1.483049 1.430082-1.483048h439.988671a1.430082 1.430082 0 0 1 1.430082 1.430083V344.196041z m0-145.391706a1.483049 1.483049 0 0 1-0.423729 1.059321 1.483049 1.483049 0 0 1-1.059319 0.423728H272.9379a1.483049 1.483049 0 0 1-1.430082-1.483049v-59.3749c0-0.847456 0.635592-1.430082 1.430082-1.430082h439.988671a1.430082 1.430082 0 0 1 1.430082 1.430082v59.3749z"  horiz-adv-x="1024" />
      
      <glyph glyph-name="yanzhengma" unicode="&#59518;" d="M860.8 608.7a56 56 0 0 1-44.2 49.1 1043.75 1043.75 0 0 0-143 32.9 530.9 530.9 0 0 0-127.7 74.65 58.4 58.4 0 0 1-68.25 0 335 335 0 0 0-128.7-74.15 479.65 479.65 0 0 0-139-34.35c-24.4-3.95-42.65-24.5-43.75-49.15-1.05-24.65-1.5-123.3-1.5-231.8 0-196.5 231.85-386.6 347.8-386.6 115.95 0 312.45 134.1 343.85 383.6 7.9 147.4 4.45 235.8 4.45 235.8zM734.5 456.9L492.35 228.5a32.85 32.85 0 0 0-40.25-3.95l-6.35 5.45L312.1 369a33.35 33.35 0 0 0 49.1 45.15l110.05-115.4 218.1 206.3a33.4 33.4 0 1 0 45.2-49.15v1z"  horiz-adv-x="1024" />
      
      <glyph glyph-name="fensi" unicode="&#58888;" d="M488.616071 753.441964a180.200893 180.200893 0 0 1-180.984375-180.803571 180.140625 180.140625 0 0 1 180.984375-180.863839 181.285714 181.285714 0 0 1 180.924108 180.803571A181.285714 181.285714 0 0 1 488.616071 753.5625z m0-323.216518A142.232143 142.232143 0 0 0 346.203125 572.638393a142.292411 142.292411 0 0 0 142.412946 142.352678c38.571429 0 73.707589-15.066964 102.154018-43.57366a138.013393 138.013393 0 0 0 40.198661-98.839286 142.292411 142.292411 0 0 0-142.352679-142.352679zM486.6875 431.069196c-221.0625 0-328.279018-128.973214-328.279018-395.236607 0-13.439732 10.064732-20.129464 20.069197-20.129464 8.4375 0 18.502232 6.689732 18.502232 20.129464 0 242.819196 92.089286 355.037946 289.767857 355.037947 11.691964 0 20.129464 8.4375 20.129464 20.129464-0.120536 13.319196-10.185268 20.069196-20.189732 20.069196z m346.78125-120.595982c-35.196429 36.763393-97.151786 41.825893-140.725446 10.004465-40.198661 31.821429-103.841518 26.819196-140.725447-10.004465-41.886161-41.886161-41.886161-112.21875 1.627232-155.732143l127.345982-117.28125c3.375-3.375 8.377232-5.002232 13.379465-5.002232 3.375 0 8.4375 0 11.691964 5.002232l127.345982 118.908483a110.169643 110.169643 0 0 1 0.060268 154.10491z m-26.819196-128.973214l-113.90625-107.216518-113.90625 105.589286a68.102679 68.102679 0 0 0-20.129465 50.263393c0 20.069196 6.629464 36.763393 20.069197 50.263393 13.439732 13.439732 31.821429 21.696429 50.263393 21.696428 21.756696 0 36.823661-6.629464 48.63616-21.696428 1.627232-3.375 6.629464-5.0625 11.691965-5.0625 6.629464 0 13.439732 3.375 16.694196 6.689732 28.566964 25.131696 73.707589 25.131696 100.526786 0 26.879464-30.133929 26.879464-73.767857 0-100.526786z"  horiz-adv-x="1024" />
      
      <glyph glyph-name="a-mimasuo-copy" unicode="&#59517;" d="M756.40625 500.8875H267.875a104.85 104.85 0 0 1-104.34375-104.34375v-329.7375A104.625 104.625 0 0 1 267.875-37.3125h488.53125a104.625 104.625 0 0 1 104.34375 104.175V396.54375a104.85 104.85 0 0 1-104.34375 104.34375zM554.75 214.18125v-108.16875H468.8v108.39375a87.13125 87.13125 0 1 0 86.68125 0l-0.675-0.225zM741.78125 497.90625H674.5625V576.2625a162.39375 162.39375 0 0 1-324.7875 0v-78.35625H282.6125V576.2625a229.55625 229.55625 0 1 0 459.16875 0v-78.35625z"  horiz-adv-x="1024" />
      
      <glyph glyph-name="biaoqian-hollowing" unicode="&#59516;" d="M549.5-16.851563a46.570313 46.570313 0 0 0-33.146485 13.728516l-365.625 365.625A46.570313 46.570313 0 0 0 137 395.648437V712.125a46.927734 46.927734 0 0 0 46.875 46.875h316.476563a46.570313 46.570313 0 0 0 33.146484-13.728515l365.625-365.625a46.933594 46.933594 0 0 0 0-66.292969l-316.476563-316.476563a46.570313 46.570313 0 0 0-33.146484-13.728515zM183.875 721.5a9.375 9.375 0 0 1-9.375-9.375v-316.476563a9.292968 9.292968 0 0 1 2.748047-6.626953l365.625-365.625a9.375 9.375 0 0 1 13.253906 0l316.476563 316.476563a9.375 9.375 0 0 1 0 13.253906l-365.625 365.625a9.292968 9.292968 0 0 1-6.626953 2.748047z m196.875-300c-51.691406 0-93.75 42.058593-93.75 93.75s42.058593 93.75 93.75 93.75 93.75-42.058593 93.75-93.75-42.058593-93.75-93.75-93.75z m0 150a56.25 56.25 0 1 1 56.25-56.25 56.314453 56.314453 0 0 1-56.25 56.25z"  horiz-adv-x="1024" />
      
      <glyph glyph-name="caina" unicode="&#58960;" d="M622.4 763.542857a88.937143 88.937143 0 0 1-52.045715-16.182857l-34.971428-24.48a31.131428 31.131428 0 0 0-36 0l-34.971429 24.48a88.731428 88.731428 0 0 1-41.28 15.634285c-42.925715 4.8-87.222857-21.531428-99.291428-66.78857l-11.04-41.28a31.131428 31.131428 0 0 0-27.497143-23.108572l-42.514285-3.702858c-62.262857-5.485715-101.28-72.96-74.88-129.531428l18.102856-38.742857a31.062857 31.062857 0 0 0-6.24-35.382857l-30.171428-30.171428c-44.228572-44.16-30.651428-120.96 25.92-147.36l38.742857-18.034287c12-5.554285 19.131428-17.828572 17.965715-31.062856l-3.771429-42.582857c-5.485715-62.194285 54.308572-112.32 114.651429-96.137143l41.211428 11.04c12.822857 3.428572 26.194285-1.371428 33.805715-12.274287l24.48-34.971428c35.794285-51.154285 113.828572-51.154285 149.622857 0l24.48 34.971428a31.062857 31.062857 0 0 0 33.737143 12.274287l41.211428-11.04c60.342857-16.182857 120.068572 33.942857 114.651429 96.137143l-3.771429 42.514285a30.994285 30.994285 0 0 0 17.965714 31.131428l38.742858 18.034287c56.571428 26.4 70.148572 103.2 25.98857 147.42857l-30.24 30.17143a31.062857 31.062857 0 0 0-6.24 35.314285l18.034287 38.742857c26.4 56.571428-12.548572 124.114285-74.742857 129.6l-42.582858 3.634286a31.131428 31.131428 0 0 0-27.497142 23.108572L710.857143 696.205715a92.022857 92.022857 0 0 1-88.594286 67.337142h0.137143z m-214.285715-59.382857a31.954285 31.954285 0 0 0 21.874287-5.897143l34.971428-24.548572a91.885715 91.885715 0 0 1 104.914285 0l34.902858 24.548572a30.582857 30.582857 0 0 0 48.205714-17.554285l10.971428-41.28c9.942857-37.028572 42.171428-64.045715 80.297143-67.337144l42.514287-3.702856c22.628572-2.057143 35.314285-23.931428 25.714285-44.434287l-18.102857-38.742857c-16.182857-34.697143-8.914285-76.114285 18.24-103.2l30.171429-30.171428a30.582857 30.582857 0 0 0-8.914287-50.537143l-38.742857-18.034285a91.474285 91.474285 0 0 1-52.32-90.72l3.702857-42.514287a30.514285 30.514285 0 0 0-39.291428-32.982857l-41.211429 11.04a91.611428 91.611428 0 0 1-98.537143-35.794285l-24.48-34.971428v-0.068572a30.582857 30.582857 0 0 0-51.291428 0l-24.48 35.04a91.474285 91.474285 0 0 1-98.4 35.794285l-41.348572-11.04a30.445715 30.445715 0 0 0-39.222857 32.914287l3.771429 42.514285a91.542857 91.542857 0 0 1-52.457142 90.857143l-38.674287 17.965714a30.582857 30.582857 0 0 0-8.914285 50.537143l30.171429 30.171428c27.154285 27.085715 34.422857 68.571428 18.24 103.2l-18.102857 38.742857a30.582857 30.582857 0 0 0 25.645713 44.434287l42.582857 3.702856a91.474285 91.474285 0 0 1 80.228572 67.337144l11.04 41.28a31.268572 31.268572 0 0 0 26.331428 23.451428zM661.485715 504.205715a30.034285 30.034285 0 0 1-20.57143-9.05143L461.942857 316.388572 383.085715 395.177143a30.034285 30.034285 0 1 1-42.377143-42.445715l100.045713-99.977143c11.657143-11.725715 30.651428-11.725715 42.377143 0l200.022857 199.954287a30.034285 30.034285 0 0 1-21.805713 51.497143h0.137143z"  horiz-adv-x="1024" />
      
      <glyph glyph-name="xiezuo" unicode="&#58957;" d="M739.328 737.28a25.6 25.6 0 1 0 0-51.2H189.44v-604.16h604.16v284.444444a25.6 25.6 0 0 0 22.983111 25.486223l2.616889 0.113777a25.6 25.6 0 0 0 25.6-25.6v-289.564444a46.08 46.08 0 0 0-46.08-46.08H184.32a46.08 46.08 0 0 0-46.08 46.08V691.2a46.08 46.08 0 0 0 46.08 46.08h555.008z m157.809778-80.440889a25.6 25.6 0 0 0 0.113778-36.181333l-433.664-436.736a25.6 25.6 0 0 0-36.295112 36.067555l433.607112 436.736a25.656889 25.656889 0 0 0 36.238222 0.113778z"  horiz-adv-x="1024" />
      
      <glyph glyph-name="jiesuo" unicode="&#58958;" d="M515.84 176.22c-42.72 0-77.52 33.96-77.52 75.78s34.8 75.72 77.52 75.72c42.78 0 77.52-33.9 77.52-75.72 0-41.82-34.8-75.78-77.52-75.78z m0 205.74c-73.32 0-133.02-58.32-133.02-129.96 0-62.4 45.18-114.48 105.3-126.96v-42.54c0-15 12.36-27.12 27.72-27.12a27.36 27.36 0 0 1 27.78 27.12v42.6c60.06 12.42 105.24 64.56 105.24 126.9 0 71.64-59.7 129.96-133.02 129.96z m331.62-270.18c0-51.6-42.96-93.6-95.82-93.6H274.16c-52.8 0-95.7 42-95.7 93.6V334.8c0 51.6 42.9 93.6 95.7 93.6h477.48c52.86 0 95.82-42 95.82-93.6v-223.02z m-95.82 370.8h-429V563.28c0 102.84 85.68 186.48 190.98 186.48 105.24 0 190.92-83.64 190.92-186.48 0-15 12.42-27.12 27.78-27.12a27.36 27.36 0 0 1 27.72 27.12C760.04 696 649.52 804 513.62 804 377.6 804 267.2 696 267.2 563.4v-81.24c-80.16-3.66-144.24-68.28-144.24-147.36v-223.02c0-81.48 67.8-147.78 151.2-147.78h477.48c83.4 0 151.32 66.3 151.32 147.78V334.8c0 81.42-67.92 147.72-151.32 147.72z"  horiz-adv-x="1024" />
      
      <glyph glyph-name="suo" unicode="&#58959;" d="M753.585714 439.478572c36.321428 0 65.892858-29.507142 65.892858-65.957144v-307.35c0-36.385714-29.442858-65.957142-65.892858-65.957142H270.414286a65.957142 65.957142 0 0 0-65.957144 65.957142V373.521428c0 36.321428 29.507142 65.957142 65.957144 65.957144h483.171428z m0 65.82857H270.414286a131.785714 131.785714 0 0 1-131.785714-131.785714v-307.35a131.785714 131.785714 0 0 1 131.785714-131.785714h483.171428a131.785714 131.785714 0 0 1 131.785714 131.785714V373.521428a131.785714 131.785714 0 0 1-131.785714 131.785714zM512 768.042858a153.642858 153.642858 0 0 0 153.642858-153.642858v-109.157142H358.357142V614.335714a153.642858 153.642858 0 0 0 153.642858 153.707144zM512 834a219.664286 219.664286 0 0 1-219.664286-219.664286v-174.857142h439.264286v174.857142A219.664286 219.664286 0 0 1 512 834z m0-713.057142a32.914286 32.914286 0 0 0-32.914286 32.914284V285.771428a32.914286 32.914286 0 0 0 65.764286 0v-131.785714c0-18.257142-14.721428-33.042858-32.85-33.042856z"  horiz-adv-x="1024" />
      
      <glyph glyph-name="shoucang-solid" unicode="&#58954;" d="M356.45 28.35a66.35 66.35 0 0 0-92 22.5 68 68 0 0 0-7.9 50.45l40.85 174.25a11.5 11.5 0 0 1-3.5 11.3l-133.75 116.5a67.85 67.85 0 0 0 13.15 111c7.8 4.05 16.3 6.5 25.05 7.2l175.5 14.3a10.55 10.55 0 0 1 8.85 6.7l67.6 165.4a66.5 66.5 0 0 0 123.35 0l67.65-165.4a10.5 10.5 0 0 1 8.8-6.7l175.5-14.3c36.85-3 64.1-35.5 61.15-72.5-1.35-17.65-9.6-34.05-22.9-45.7l-133.75-116.5a11.5 11.5 0 0 1-3.5-11.3l40.85-174.25c8.45-36.05-13.5-72.4-49.35-81.05a66.1 66.1 0 0 0-50.55 8.1l-150.3 93.4a10 10 0 0 1-10.5 0l-150.3-93.4z"  horiz-adv-x="1024" />
      
      <glyph glyph-name="tiwen-solid" unicode="&#58953;" d="M763.4 725.8H260.6a120 120 0 0 1-120-120v-516.9s87.3 60 120 60h502.8a120 120 0 0 1 120 120V605.8a120 120 0 0 1-120 120zM647 328.9H377a30 30 0 0 0 0 60h270a30 30 0 0 0 0-60z m66.6 152.1H310.4a30 30 0 1 0 0 60h403.2a30 30 0 0 0 0-60z"  horiz-adv-x="1024" />
      
      <glyph glyph-name="caogao-solid" unicode="&#58952;" d="M193.23125 458.98125h637.48125A18.73125 18.73125 0 0 0 849.5 440.25v-356.4a37.29375 37.29375 0 0 0-37.2375-37.35H211.7375A37.2375 37.2375 0 0 0 174.5 83.85V440.25a18.73125 18.73125 0 0 0 18.73125 18.73125z m206.26875-112.5a37.51875 37.51875 0 0 1 37.4625-37.4625h150.01875a37.51875 37.51875 0 0 1 0 74.98125H436.9625A37.51875 37.51875 0 0 1 399.5 346.48125z m-262.51875 337.5c0 20.7 17.04375 37.51875 37.18125 37.51875h675.61875c20.53125 0 37.18125-16.65 37.18125-37.51875V552.75a18.7875 18.7875 0 0 0-18.73125-18.73125H155.7125A18.73125 18.73125 0 0 0 136.98125 552.75V683.98125z"  horiz-adv-x="1024" />
      
      <glyph glyph-name="huida-solid" unicode="&#58951;" d="M233.908569 754.788574h556.182862A92.697144 92.697144 0 0 0 882.788574 662.091431v-556.182862A92.697144 92.697144 0 0 0 790.091431 13.211426H233.908569A92.697144 92.697144 0 0 0 141.211426 105.908569V662.091431A92.697144 92.697144 0 0 0 233.908569 754.788574z m153.877259-556.182861l42.163957 96.246119h164.524188l42.216928-96.246119h107.528686L565.287615 615.47801H459.189113L280.257141 198.605713h107.528687z m186.294774 170.562744H450.819885l61.656843 145.66694 61.603874-145.66694z"  horiz-adv-x="1024" />
      
      <glyph glyph-name="pinglun-solid" unicode="&#58950;" d="M786.383545 173.441528h-143.717651c-48.35083-46.867676-122.508545-131.011963-122.508545-131.011963a11.222534 11.222534 0 0 0-16.314698 0s-101.348877 104.957886-125.820922 131.011963H237.567017c-52.058716 0-94.279175 48.696899-94.279175 101.497193V633.466553c0 52.800293 41.281128 95.614014 92.15332 95.614013h553.068237c50.921631 0 92.15332-42.813721 92.153321-95.614013v-358.527832c0-52.800293-42.171021-101.497192-94.229737-101.497193zM327.594482 490.935425c-25.411377 0-46.027222-21.456299-46.027221-47.856446s20.615845-47.807007 46.07666-47.807006c25.460815 0 46.07666 21.40686 46.07666 47.807006s-20.615845 47.856445-46.07666 47.856446z m184.405518 0c-25.460815 0-46.126099-21.456299-46.126099-47.856446s20.665283-47.807007 46.126099-47.807006c25.411377 0 46.07666 21.40686 46.07666 47.807006S537.411377 490.935425 512 490.935425z m184.356079 0c-25.460815 0-46.126099-21.456299-46.126099-47.856446s20.665283-47.807007 46.126099-47.807006c25.460815 0 46.07666 21.40686 46.07666 47.807006s-20.615845 47.856445-46.07666 47.856446z"  horiz-adv-x="1024" />
      
      <glyph glyph-name="zuozhe-solid" unicode="&#58949;" d="M511.205453 273.081246c351.613508 0 348.117501-222.632054 348.117501-222.632053a31.358119 31.358119 0 0 0-31.887817-36.54916H194.869829c-20.287432 0-35.383824 16.579546-31.887817 36.54916 0 0-3.496007 222.579084 348.170471 222.579084v0.052969zM510.940604 754.311846h220.195443v-222.102356c0-122.678048-98.576791-222.155326-220.195443-222.155326-121.565682 0-220.142473 99.477278-220.142473 222.155326C290.8511 654.940508 389.427892 754.364816 510.940604 754.364816z"  horiz-adv-x="1024" />
      
      <glyph glyph-name="fensi-solid" unicode="&#58948;" d="M982.334536 277.4375c-40.454799 37.516741-104.979074 33.618164-144.24735-5.0851l-0.904018-0.904018-0.904018 0.904018c-39.211775 38.703264-103.792551 42.601841-144.247349 5.0851a99.893973 99.893973 0 0 1-31.979631-71.191406 98.481445 98.481445 0 0 1 29.719586-72.151926l3.842077-3.842075 105.092075-103.397042a54.241072 54.241072 0 0 1 38.420759-15.707311 54.919085 54.919085 0 0 1 38.420759 15.650809l105.092076 103.397042 3.955078 3.898577a99.780971 99.780971 0 0 1 29.663086 72.151926 98.481445 98.481445 0 0 1-31.92313 71.191406zM656.605601 122.906948l-4.859095 4.802595a127.692522 127.692522 0 0 0-37.460241 91.757812 126.223493 126.223493 0 0 0 81.474609 115.94029c15.255301 5.650112 31.640625 8.249163 48.025949 7.627651a430.82101 430.82101 0 0 1-75.372489 50.964006c-14.803293 8.023159-37.96875 5.141602-43.618861 27.516044 102.154018 91.136301 114.301758 203.291016 32.431641 292.280274C587.391734 789.620117 457.721673 795.722238 380.315144 726.734375c-90.062779-80.231585-84.07366-199.44894 19.718889-312.677176C252.622622 354.618025 174.59458 249.695452 157.587744 99.458984c-6.328125-56.218611 16.780832-87.407227 75.372489-87.57673 178.317522-0.565011 356.635044-1.243025 534.952567 0.395508l-111.307199 110.629186z"  horiz-adv-x="1170" />
      
      <glyph glyph-name="jubao-solid" unicode="&#58947;" d="M197 69h630V316.5c0 173.25-141.75 315-315 315-173.25 0-315-141.75-315-315v-247.5z m429.75 481.5a85.5 85.5 0 1 0 0.1125-170.94375 85.5 85.5 0 0 0-0.1125 170.94375zM523.25 721.5c18 0 33.75 15.75 33.75 33.75V800.25c0 18-15.75 33.75-33.75 33.75-18 0-33.75-15.75-33.75-33.75v-45c0-18 15.75-33.75 33.75-33.75z m294.75-45l31.5 31.5c13.5 13.5 13.5 36 0 49.5a32.625 32.625 0 0 1-47.25 0l-31.5-31.5a32.625 32.625 0 0 1 0-47.25c11.25-15.75 33.75-15.75 47.25-2.25z m-612 0c13.5-13.5 36-13.5 49.5 0a32.625 32.625 0 0 1 0 47.25l-33.75 33.75c-11.25 11.25-33.75 11.25-47.25 0-13.5-13.5-13.5-36 0-49.5l31.5-31.5z m654.75-675H163.25c-18 0-33.75-15.75-33.75-33.75 0-18 15.75-33.75 33.75-33.75h697.5c18 0 33.75 15.75 33.75 33.75 0 18-15.75 33.75-33.75 33.75z"  horiz-adv-x="1024" />
      
      <glyph glyph-name="liulan-solid" unicode="&#58955;" d="M512.240414 805.873418A399.620345 399.620345 0 0 1 111.459915 405.092919c0-222.274974 178.505525-400.780499 400.780499-400.780498s400.780499 178.505525 400.780498 400.780498S734.515388 805.873418 512.240414 805.873418z m134.788809-542.899373c-7.27733-7.27733-14.55466-10.915995-21.83199-10.915995-7.27733 0-18.246059 3.6914-21.884724 10.915995L490.355689 375.930864c-7.27733 7.27733-10.915995 14.607395-10.915995 21.884726V605.483169a32.695252 32.695252 0 0 0 45.351477 30.322208 32.695252 32.695252 0 0 0 20.249962-30.322208v-193.11292l101.98809-101.988089c7.330064-7.330064 10.968729-14.607395 10.96873-21.884725 0-10.915995-3.6914-21.83199-10.96873-25.52339z"  horiz-adv-x="1024" />
      
      <glyph glyph-name="shanchu-solid" unicode="&#58885;" d="M863.5625 645.386719H158.328125c-18.544922 0-33.574219-15.029297-33.574219-33.574219S139.783203 578.238281 158.328125 578.238281h77.871094v-412.294922c0-79.716797 64.863281-144.580078 144.580078-144.580078h260.332031c79.716797 0 144.580078 64.863281 144.580078 144.580078V578.326172H863.5625c18.544922 0 33.574219 15.029297 33.574219 33.574219 0 18.457031-15.029297 33.486328-33.574219 33.486328zM468.494141 233.707031c0-18.544922-15.029297-33.574219-33.574219-33.574219s-33.574219 15.029297-33.574219 33.574219V444.556641c0 18.544922 15.029297 33.574219 33.574219 33.574218s33.574219-15.029297 33.574219-33.574218V233.707031z m151.96289 0c0-18.544922-15.029297-33.574219-33.574219-33.574219S553.308594 215.162109 553.308594 233.707031V444.556641c0 18.544922 15.029297 33.574219 33.574219 33.574218s33.574219-15.029297 33.574218-33.574218V233.707031zM382.361328 680.542969h257.167969c18.544922 0 33.574219 15.029297 33.574219 33.574219s-15.029297 33.574219-33.574219 33.574218H382.361328c-18.544922 0-33.574219-15.029297-33.574219-33.574218s15.029297-33.574219 33.574219-33.574219z"  horiz-adv-x="1024" />
      
      <glyph glyph-name="tiwen" unicode="&#58946;" d="M900.404933 359.633894a76.541356 76.541356 0 0 1-4.873221 15.890939l-0.158909 0.317818-0.15891 0.317819a126.438904 126.438904 0 0 1-21.293858 32.258606 104.562378 104.562378 0 0 1-27.650234 22.777013 93.703569 93.703569 0 0 1-15.202331 6.250436 76.806205 76.806205 0 0 1-22.406224 3.443037c-15.943909 0-31.464059-5.508859-43.806021-15.62609l-0.423759-0.370789-0.370788-0.370789a303.516933 303.516933 0 0 1-12.183053-11.123657c-4.078674-4.025704-7.574681-7.415771-10.48802-10.064261l-3.019279-2.913339-0.052969 0.105939-2.171762-2.224731-23.200771-22.035435 0.953456-0.953457-1.853943-1.959882-81.202697-83.586339L572.786743 229.804923c-8.475167-8.687047-15.57312-16.049848-21.187918-21.982466l-9.057835-9.640503-1.271276-1.324244a95.504542 95.504542 0 0 1-20.181492-30.086845c-2.118792-4.290553-4.131644-9.640503-6.621225-17.321123-2.171762-6.515285-4.290553-13.772147-6.621224-21.664647l-6.197466-21.770586a173.952811 173.952811 0 0 1-4.608373-21.02901c-2.54255-17.215184 0.688607-32.046727 9.799413-43.700081a47.302028 47.302028 0 0 1 38.403102-17.585972c2.64849 0 5.455889 0.15891 8.263288 0.423758l0.794547 0.105939 0.741578 0.15891a187.513079 187.513079 0 0 1 18.592398 4.343523 411.575317 411.575317 0 0 1 23.147801 6.992013 646.231515 646.231515 0 0 1 22.777012 8.05141 212.938581 212.938581 0 0 1 18.32755 7.839529c6.038557 2.75443 11.759295 6.356376 17.215184 10.646929 7.68062 6.038557 14.937483 12.659781 21.611677 19.810704l20.287432 21.029009c7.309832 7.73359 15.784999 16.367667 26.696777 27.385385l0.211879 0.211879 0.264849 0.264849 30.245754 31.517028 81.043788 83.639309 26.167079 27.014596h-0.052969l0.317818 0.264849c2.59552 2.330671 5.0851 4.767282 7.521712 7.203893 1.589094 1.642064 3.496007 3.601946 5.667768 5.614798l9.905352 9.905352c11.335536 12.553842 17.638942 28.868539 17.691911 45.818873a137.456621 137.456621 0 0 1-2.277701 17.691913z m-172.681536-170.297895l-30.298723-31.464059c-10.064261-10.117231-19.016157-19.439916-27.173506-27.862113l-20.022583-20.81713c-5.614799-6.038557-11.653355-11.653355-18.11567-16.738456a45.554025 45.554025 0 0 0-10.170201-6.356376 191.220965 191.220965 0 0 0-15.52015-6.568254 527.738081 527.738081 0 0 0-21.293858-7.627651c-7.415771-2.43661-14.407784-4.608373-21.134949-6.356375a197.259521 197.259521 0 0 0-14.884513-3.496007 38.87983 38.87983 0 0 0-4.078674-0.264849c-4.555403 0-7.78656 1.112366-9.534563 3.390067-2.224731 2.860369-2.860369 7.62765-1.906913 14.407785 0.529698 3.707886 1.642064 8.951896 3.601946 15.784999l6.038557 21.399798c2.171762 7.415771 4.237584 14.301845 6.250436 20.393371 2.012853 6.250436 3.707886 10.593959 4.926191 12.871661 1.430184 3.443037 3.125218 6.727164 5.0851 9.905351 1.853943 2.966309 4.661342 6.303406 8.157349 9.852383l10.593959 11.123657c5.508859 5.826677 12.500872 13.08354 20.76416 21.611677l27.544294 28.444781 111.607361 115.156337 70.661708-73.257228-81.149728-83.533369z m135.49674 142.541722a31.25218 31.25218 0 0 0-6.038557-9.693473l-8.157349-8.263289c-2.118792-2.012853-4.184614-4.078674-6.197466-6.197465a86.340768 86.340768 0 0 0-5.667768-5.40292l-70.608739 72.83347 10.752868 10.38208c3.390067 3.284127 6.886073 6.462315 10.38208 9.534563a32.894243 32.894243 0 0 0 20.97604 7.574681h1.059396c3.654916-0.15891 7.150923-0.688607 10.48802-1.748003a50.851005 50.851005 0 0 0 8.845956-3.496006c5.29698-2.913339 11.176627-7.83953 17.585972-14.937483 6.462315-7.150923 11.388506-14.566694 14.884513-22.406224 1.165336-2.64849 1.959883-5.402919 2.383641-8.210318a45.818874 45.818874 0 0 0 1.006426-9.746443 25.213623 25.213623 0 0 0-1.695033-10.170201zM417.108512 65.386675h-156.790597c-27.014596 0-48.838152 22.618103-48.838153 50.427246V653.192505c0 27.756173 21.929496 50.321306 48.785183 50.321306h521.010917c27.014596 0 48.838152-22.565133 48.838152-50.321306V516.424491c0-14.142936 11.123657-25.531442 24.683924-25.531442a25.107683 25.107683 0 0 1 24.736896 25.531442V653.192505c0.15891 55.936105-43.964931 101.38419-98.206002 101.38419H260.264945C206.076843 754.576695 161.953003 709.12861 161.953003 653.245475v-537.431554c0-55.883135 44.07087-101.43716 98.311942-101.43716h156.843567a25.107683 25.107683 0 0 1 24.736895 25.531442 25.107683 25.107683 0 0 1-24.736895 25.531442zM717.288347 587.933716a25.160653 25.160653 0 0 1-24.736894 25.531442H339.825579a25.107683 25.107683 0 0 1-24.736895-25.531442c0-14.142936 11.123657-25.531442 24.736895-25.531442h352.672904a25.160653 25.160653 0 0 1 24.683925 25.531442h0.105939zM339.878549 478.815935a25.107683 25.107683 0 0 1-24.736895-25.584411c0-14.089966 11.123657-25.478472 24.736895-25.478472h243.290274a25.107683 25.107683 0 0 1 24.736895 25.531441 25.107683 25.107683 0 0 1-24.736895 25.531442H339.878549zM477.970808 334.73809H339.878549a25.107683 25.107683 0 0 1-24.736895-25.531442c0-14.089966 11.123657-25.531442 24.736895-25.531442H477.970808a25.107683 25.107683 0 0 1 24.736895 25.584412 25.107683 25.107683 0 0 1-24.736895 25.531441z"  horiz-adv-x="1024" />
      
      <glyph glyph-name="wenzhang2" unicode="&#58945;" d="M632.213334 376.8H396.906667a28.8 28.8 0 0 0 0 57.6h235.306667a28.8 28.8 0 0 0 0-57.6z m0-178.293334H396.906667a28.8 28.8 0 0 0 0 57.6h235.306667a28.8 28.8 0 0 0 0-57.6zM847.893333 378.293333a28.8 28.8 0 0 1-28.8-28.8v-212.8a106.133333 106.133333 0 0 0-105.973333-106.026666H316a106.133333 106.133333 0 0 0-105.973333 106.026666V543.573334a106.133333 106.133333 0 0 0 105.973333 105.973333h11.84a122.773333 122.773333 0 0 1 120.053334-97.706667h133.333333a122.773333 122.773333 0 0 1 120 97.706667h11.893333a106.133333 106.133333 0 0 0 105.973333-105.973333 28.8 28.8 0 0 1 57.6 0 163.733333 163.733333 0 0 1-163.573333 163.573333h-13.866667a122.773333 122.773333 0 0 1-118.026666 89.76h-133.333333A122.773333 122.773333 0 0 1 329.813334 707.2h-13.813334a163.733333 163.733333 0 0 1-163.573333-163.573334v-406.933333a163.84 163.84 0 0 1 163.573333-163.573333h397.066667a163.786667 163.786667 0 0 1 163.573333 163.626667v212.8a28.8 28.8 0 0 1-28.8 28.8z m-399.999999 361.066667h133.333333a65.066666 65.066666 0 0 0 64.906667-65.013333 65.066666 65.066666 0 0 0-64.960001-64.906667H447.893334a64.96 64.96 0 0 0 0 129.866667z"  horiz-adv-x="1024" />
      
      <glyph glyph-name="caogao" unicode="&#58944;" d="M670.090123 647.690708H353.796875v-52.71554h316.349749v52.71554zM828.40625 384h-26.555525V700.40625A79.101563 79.101563 0 0 1 722.862165 779.507813H301.024832c-43.675363 0-79.101563-35.482701-79.101562-79.101563V384H195.59375A79.214565 79.214565 0 0 1 116.492188 304.898438v-237.304688A79.214565 79.214565 0 0 1 195.59375-11.507813h632.699498A79.327567 79.327567 0 0 1 907.507813 67.537249v237.304687A79.214565 79.214565 0 0 1 828.40625 384zM274.695313 700.40625c0 14.464285 11.865234 26.32952 26.329519 26.32952h421.837333c14.520787 0 26.386021-11.865234 26.386021-26.32952V384H643.704102v-52.772043h0.113002v-52.659039c0-14.520787-11.865234-26.386021-26.329521-26.386022H406.512417a26.442522 26.442522 0 0 0-26.329521 26.386022V384H274.638811V700.40625z m580.096958-632.869001c0-14.520787-11.865234-26.386021-26.386021-26.386021H195.59375a26.442522 26.442522 0 0 0-26.32952 26.386021v237.304687c0 14.520787 11.865234 26.386021 26.32952 26.386021h131.817104v-52.772042a79.214565 79.214565 0 0 1 79.101563-79.101562h210.862165c43.618862 0 79.101563 35.482701 79.101562 79.101562v52.772042H828.40625c14.520787 0 26.386021-11.865234 26.386021-26.329519v-237.361189zM670.090123 515.817104H353.796875v-52.772043h316.349749v52.772043z"  horiz-adv-x="1024" />
      
      <glyph glyph-name="liulan" unicode="&#58943;" d="M426.359375-0.433594h-168.75A108.105469 108.105469 0 0 0 149.714844 107.671875V697.875A108.105469 108.105469 0 0 0 257.662109 805.875h408.164063a108.105469 108.105469 0 0 0 108-108v-276.591797a28.529297 28.529297 0 0 0-39.498047-26.736328 28.529297 28.529297 0 0 0-17.402344 26.736328V697.875a51.152344 51.152344 0 0 1-51.152343 51.099609h-408.164063a51.152344 51.152344 0 0 1-51.046875-51.099609v-590.255859a51.152344 51.152344 0 0 1 51.099609-51.152344h168.75a28.476563 28.476563 0 1 0 0-56.900391zM462.693359 562.927734H324.212891a28.476563 28.476563 0 1 0 0 56.953125h138.480468a28.476563 28.476563 0 0 0 0-56.953125z m136.582032-159.363281H324.212891a28.476563 28.476563 0 1 0 0 56.953125h275.0625a28.476563 28.476563 0 1 0 0-56.953125z m70.189453-441.544922a205.136719 205.136719 0 0 0-204.873047 204.873047 205.136719 205.136719 0 0 0 204.873047 204.925781 205.136719 205.136719 0 0 0 204.873047-204.925781 205.136719 205.136719 0 0 0-204.873047-204.873047z m0 352.898438a148.183594 148.183594 0 0 1-147.972656-147.972657 148.183594 148.183594 0 0 1 147.972656-148.02539 148.183594 148.183594 0 0 1 147.972656 147.972656 148.183594 148.183594 0 0 1-147.972656 148.025391zM669.464844 139.892578a28.476563 28.476563 0 0 0-28.476563 28.476563v77.783203a28.476563 28.476563 0 1 0 56.953125 0v-77.783203a28.476563 28.476563 0 0 0-28.476562-28.476563zM748.197266 138.574219h-77.783204a28.476563 28.476563 0 0 0 0 56.953125h77.783204a28.476563 28.476563 0 0 0 0-56.953125z"  horiz-adv-x="1024" />
      
      <glyph glyph-name="tuichu" unicode="&#58942;" d="M850.406372 402.786621l-138.872681 133.681641a27.58667 27.58667 0 0 1-38.858642 0 25.213623 25.213623 0 0 1 0-37.424927l91.658935-88.247681H497.662842c-16.660767 0-27.784424-10.728149-27.784424-26.746216 0-16.067505 11.123657-26.746216 27.784424-26.746215h266.671142l-91.658935-88.247681a25.213623 25.213623 0 0 1 0-37.424927 25.708008 25.708008 0 0 1 19.429321-8.009033 25.708008 25.708008 0 0 1 19.429321 8.009033l138.92212 136.351319s0 2.669678 2.768554 2.669677a21.456299 21.456299 0 0 1-2.817993 32.13501zM775.408203 196.825928c-16.660767 0-27.734985-10.678711-27.734985-26.696778v-53.54187c0-16.018066-11.123657-26.696777-27.784424-26.696777h-472.137451c-16.710205 0-27.833862 10.678711-27.833863 26.696777V651.462158c0 16.018066 11.123657 26.696777 27.784424 26.696778h472.137451c16.710205 0 27.833862-10.678711 27.833863-26.696778v-53.492431c0-16.067505 11.074219-26.696777 27.734985-26.696778 16.660767 0 27.784424 10.629272 27.784424 26.696778V651.41272c0 45.483398-36.090088 80.189209-83.303833 80.189209h-472.137451C200.438721 731.601929 164.348633 696.84668 164.348633 651.462158V116.537842c0-45.483398 36.090088-80.189209 83.303833-80.189209h472.137451c47.263184 0 83.353271 34.755249 83.353271 80.189209v53.492431c0 16.067505-11.123657 26.696777-27.784423 26.696778z"  horiz-adv-x="1024" />
      
      <glyph glyph-name="quxiao" unicode="&#58941;" d="M191.539795 709.305176a22.543945 22.543945 0 0 0 31.640625 0l604.335937-604.335938a22.543945 22.543945 0 0 0 0-31.640625 22.543945 22.543945 0 0 0-31.739502 0L191.539795 677.466797a22.445068 22.445068 0 0 0 0 31.640625zM827.41748 709.305176a22.543945 22.543945 0 0 0 0-31.838379L223.279297 73.130859a22.543945 22.543945 0 0 0-31.739502 0 22.543945 22.543945 0 0 0 0 31.838379L795.677979 709.206299a22.543945 22.543945 0 0 0 31.838378 0z"  horiz-adv-x="1024" />
      
      <glyph glyph-name="mingxi" unicode="&#58940;" d="M788.932799 754.788574c29.449103 0 53.336775-25.423686 53.336775-56.885498v-627.806152c0-31.35588-23.887672-56.885498-53.336775-56.885498H210.014276C180.565173 13.264392 156.677502 38.741044 156.677502 70.14989V697.956042C156.677502 729.311922 180.512208 754.788574 210.014276 754.788574h578.918523zM482.418482 565.488044c0 41.419422-30.720287 74.999874-68.696919 74.999874-37.923665 0-68.643953-33.580452-68.643953-74.999874 0-24.470298 10.752101-46.186363 27.330463-59.851595L299.156077 440.859015h229.130972L455.088019 505.636449a77.330379 77.330379 0 0 1 27.330463 59.851595z m231.991137-221.344969a1.483049 1.483049 0 0 1-0.370762 1.059321 1.483049 1.483049 0 0 1-1.05932 0.423728H273.096798a1.430082 1.430082 0 0 1-1.430082-1.483049v-59.321935c0-0.847456 0.635592-1.483049 1.430082-1.483048h439.935704a1.430082 1.430082 0 0 1 1.483049 1.430083V344.196041z m0-145.391706a1.483049 1.483049 0 0 1-0.370762 1.059321 1.483049 1.483049 0 0 1-1.05932 0.423728H273.096798a1.483049 1.483049 0 0 1-1.430082-1.483049v-59.3749c0-0.847456 0.635592-1.430082 1.430082-1.430082h439.935704a1.430082 1.430082 0 0 1 1.483049 1.430082v59.3749z"  horiz-adv-x="1024" />
      
      <glyph glyph-name="hezhi" unicode="&#58939;" d="M413 331.08V441.72l95.46 55.26 93-52.8c2.52-2.46 5.04-4.98 5.04-7.5v-105.6l-98.04-55.32-95.52 55.32z m480.06-108.06V547.2c0 35.22-17.58 65.4-50.28 82.98L558.8 793.62a97.62 97.62 0 0 1-98.04 0L176.66 632.76c-30.18-17.64-50.28-50.28-50.28-82.98v-324.3c0-35.16 17.64-65.34 50.28-82.92l286.56-160.86a97.62 97.62 0 0 1 98.04 0l286.56 160.8c27.66 15.12 45.24 47.82 45.24 80.52z m-211.14 65.34l-170.94-98.04-170.94 98.04V481.92l171 98.04 170.88-98.04v-193.56z"  horiz-adv-x="1024" />
      
      <glyph glyph-name="wenti" unicode="&#58937;" d="M512 779.507813a395.507813 395.507813 0 0 0 279.680525-675.188338L907.507813-11.507813H512A395.507813 395.507813 0 1 0 512 779.507813z m0-565.011161a56.501116 56.501116 0 1 1 0-113.002233 56.501116 56.501116 0 0 1 0 113.002233z m0 452.008929a169.503348 169.503348 0 0 1-169.503348-169.503349h113.002232l0.395508 6.610631A56.501116 56.501116 0 1 0 512 440.501116l-6.61063-0.395508A56.501116 56.501116 0 0 1 455.498884 384v-56.501116a56.501116 56.501116 0 0 1 113.002232 0v9.66169A169.559849 169.559849 0 0 1 512 666.505581z"  horiz-adv-x="1024" />
      
      <glyph glyph-name="shanchu" unicode="&#58932;" d="M130.391462 694.756138h749.600307c9.209682 0 13.842773-4.689593 13.842774-14.125279v-28.250558c0-9.435686-4.633091-14.125279-13.842774-14.125279H130.334961C121.125279 638.255022 116.492188 642.944615 116.492188 652.380301v28.250558c0 9.435686 4.633091 14.125279 13.899274 14.125279zM671.898159-11.507813H338.711077a137.636719 137.636719 0 0 0-98.142439 41.358817 142.552316 142.552316 0 0 0-40.680803 99.893974v508.510044h55.540597v-508.510044c0-22.487444 8.814174-44.070871 24.408482-59.891184 15.594308-15.933315 36.782227-24.860491 58.874163-24.860491H671.898159c22.035435 0 43.279855 8.927176 58.874163 24.860491 15.650809 15.820313 24.408482 37.403739 24.408481 59.891184v508.510044h55.484097v-508.510044c0-37.46024-14.577288-73.394949-40.624303-99.893974A137.636719 137.636719 0 0 0 671.898159-11.507813zM408.037947 497.002232h27.742048c9.266183 0 13.899275-4.689593 13.899274-14.125279v-310.756138c0-9.435686-4.633091-14.125279-13.899274-14.12528H408.037947c-9.266183 0-13.899275 4.689593-13.899275 14.12528v310.756138c0 9.435686 4.633091 14.125279 13.899275 14.125279zM574.433733 497.002232h27.742048c9.266183 0 13.899275-4.689593 13.899275-14.125279v-310.756138c0-9.435686-4.633091-14.125279-13.899275-14.12528h-27.685547c-9.322684 0-13.955776 4.689593-13.955776 14.12528v310.756138c0 9.435686 4.633091 14.125279 13.899275 14.125279zM491.433594 779.507813h27.798549c9.209682 0 13.842773-4.689593 13.842774-14.125279v-84.751675c0-9.435686-4.633091-14.125279-13.842774-14.125278h-27.798549c-9.209682 0-13.842773 4.689593-13.842774 14.125278V765.382534c0 9.435686 4.633091 14.125279 13.842774 14.125279z"  horiz-adv-x="1024" />
      
      <glyph glyph-name="sousuo" unicode="&#58936;" d="M900.0125 35.7375l-134.1 143.475a362.8125 362.8125 0 0 1 84.1875 232.9875c0 201.525-164.025 365.55-365.7 365.55-201.525 0-365.55-164.025-365.55-365.55s164.025-365.5875 365.55-365.5875a361.575 361.575 0 0 1 151.35 32.8125 27.975 27.975 0 0 1 13.875 37.2 27.975 27.975 0 0 1-37.1625 13.875 308.25 308.25 0 0 0-128.0625-27.6375c-170.55 0-309.3375 138.7875-309.3375 309.3375C175.0625 582.7125 313.85 721.5 484.4 721.5s309.3375-138.75 309.3375-309.3c0-80.2875-30.7125-156.3375-86.175-214.2375a28.125 28.125 0 0 1 0.75-39.75c0.9-0.75 1.95-1.0875 2.85-1.8375 0.75-1.05 1.2375-2.4 2.1375-3.4875l145.425-155.55a28.3125 28.3125 0 0 1 39.75-1.35 28.05 28.05 0 0 1 1.5 39.75z"  horiz-adv-x="1024" />
      
      <glyph glyph-name="shoucang" unicode="&#58935;" d="M750.59 281.175l-0.72-0.72a24.345 24.345 0 0 1-6.435-21.24l31.815-193.185c8.1-49.185-42.57-87.57-86.265-63.315l-166.14 91.575a19.89 19.89 0 0 1-19.575 0l-166.14-91.53c-43.785-24.3-94.86 14.22-86.31 63.315l31.725 192.6a24.975 24.975 0 0 1-6.975 22.365l-134.55 137.07c-34.29 34.83-15.48 95.13 32.94 102.825l185.985 28.575a21.6 21.6 0 0 1 16.2 13.05l82.485 175.77a58.5 58.5 0 0 0 106.515 0l82.8-176.085a23.31 23.31 0 0 1 15.75-12.69l186.57-28.575c48.465-7.2 67.365-67.725 33.21-102.42l-132.885-137.385z m93.51 175.815c3.15 3.24 1.35 9.09-2.07 9.585l-187.47 28.71a78.525 78.525 0 0 0-56.61 43.92l-82.575 175.725c-1.71 3.6-5.22 3.6-6.885 0l-82.485-175.5a76.455 76.455 0 0 0-57.6-44.325l-185.94-28.575c-3.6-0.54-5.445-6.57-2.25-9.855l134.01-136.53c18.495-17.73 26.505-43.47 22.725-69.885l-31.905-193.5c-0.765-4.59 2.88-7.335 5.49-5.85l166.185 91.62a75.015 75.015 0 0 0 72.675-0.045l166.185-91.62c2.565-1.44 6.165 1.35 5.4 6.165l-31.905 193.725c-3.735 25.695 4.14 51.3 22.32 68.985l132.75 137.25z"  horiz-adv-x="1024" />
      
      <glyph glyph-name="fenxiang" unicode="&#58934;" d="M738.96 148.8c-29.28 0-55.92-11.32-75.96-29.72l-275.6 210.52a111.56 111.56 0 0 1-0.6 103.16l279.76 213.52c19.6-16.56 44.8-26.6 72.4-26.6a112.6 112.6 0 0 1 112.48 112.48A112.6 112.6 0 0 1 738.96 844.64a112.6 112.6 0 0 1-112.44-112.48c0-20.56 5.6-39.84 15.32-56.44L363.4 463.2a111.92 111.92 0 0 1-76.12 29.84 112.6 112.6 0 0 1-112.48-112.48 112.6 112.6 0 0 1 112.48-112.48 112 112 0 0 1 77.16 30.76l275.08-210.08a111.72 111.72 0 0 1-13-52.4 112.6 112.6 0 0 1 112.44-112.48 112.6 112.6 0 0 1 112.48 112.48 112.6 112.6 0 0 1-112.48 112.48z m0 657.68a74.4 74.4 0 0 0 74.32-74.32 74.4 74.4 0 0 0-74.32-74.32 74.4 74.4 0 0 0-74.32 74.32 74.4 74.4 0 0 0 74.32 74.32zM287.28 306.88a73.8 73.8 0 0 0-73.68 73.68c0 40.64 33.04 73.72 73.68 73.72s73.72-33.08 73.72-73.72a73.8 73.8 0 0 0-73.72-73.72z m451.68-344.64a74.2 74.2 0 0 0-74.08 74.12c0 40.88 33.2 74.12 74.08 74.12 40.88 0 74.12-33.24 74.12-74.12a74.2 74.2 0 0 0-74.12-74.12z"  horiz-adv-x="1024" />
      
      <glyph glyph-name="gengduo" unicode="&#58933;" d="M896 384c0 35.218286-28.818286 64-64 64-35.218286 0-64-28.818286-64-64 0-35.218286 28.818286-64 64-64 35.218286 0 64 28.818286 64 64zM256 384c0 35.218286-28.818286 64-64 64-35.218286 0-64-28.818286-64-64 0-35.218286 28.818286-64 64-64 35.218286 0 64 28.818286 64 64z m320 0c0 35.218286-28.818286 64-64 64-35.218286 0-64-28.818286-64-64 0-35.218286 28.818286-64 64-64 35.218286 0 64 28.818286 64 64z"  horiz-adv-x="1024" />
      
      <glyph glyph-name="yuedu" unicode="&#58928;" d="M512.192858 538.8a136.735714 136.735714 0 1 1 0-273.6 136.735714 136.735714 0 1 1 0 273.6z m0-216c-43.2 0-79.2 36-79.2 79.2 0 43.2 36 79.2 79.2 79.2 43.2 0 79.2-36 79.2-79.2 0-43.2-36-79.2-79.2-79.2zM936.928572 420c-97.2 205.2-237.6 306-424.8 306-187.2 0-327.6-100.8-424.8-306a49.95 49.95 0 0 1 0-32.4c97.2-208.8 237.6-309.6 424.8-309.6 187.2 0 327.6 100.8 424.8 306a61.328572 61.328572 0 0 1 0 36z m-424.8-280.8c-158.4 0-280.8 82.8-363.6 262.8 82.8 180 205.2 262.8 363.6 262.8 158.4 0 280.8-82.8 363.6-262.8-82.8-180-205.2-262.8-363.6-262.8z"  horiz-adv-x="1024" />
      
      <glyph glyph-name="pinglun" unicode="&#58927;" d="M512.45 99.15c-25.071428 0-49.564286 2.121428-73.414286 5.85L267.071428 4.392858v167.657142C177.264286 232.735714 119.728572 325.885714 119.728572 430.607142c0 182.957142 175.821428 331.328572 392.721428 331.328572 217.028572 0 392.785714-148.371428 392.785714-331.328572 0-183.021428-175.757142-331.457142-392.785714-331.457142z m0 615.471428c-189.771428 0-343.671428-127.285714-343.671428-284.014286 0-96.364286 58.114286-181.285714 146.82857-232.585714l-1.607142-109.92857 115.457142 66.921428a412.714286 412.714286 0 0 1 82.928572-8.55c189.835714 0 343.735714 127.028572 343.735714 284.014286 0.064286 156.857142-153.835714 284.142858-343.671428 284.142856z m196.457142-331.32857c-27.192858 0-49.178572 21.214286-49.17857 47.314284 0 26.164286 22.114286 47.25 49.17857 47.25 27.128572 0 49.05-21.214286 49.05-47.25 0.064286-26.228572-21.857142-47.314286-49.05-47.314284z m-196.457142 0a48.214286 48.214286 0 0 0-49.05 47.314284c0 26.164286 22.05 47.25 49.05 47.25 27.128572 0 49.114286-21.214286 49.114286-47.25 0-26.228572-21.985714-47.314286-49.114286-47.314284z m-196.328572 0a48.15 48.15 0 0 0-49.05 47.314284c0 26.164286 21.857142 47.25 49.05 47.25 27.128572 0 49.114286-21.214286 49.114286-47.25 0-26.228572-21.985714-47.314286-49.114286-47.314284z"  horiz-adv-x="1024" />
      
      <glyph glyph-name="dianzan" unicode="&#58926;" d="M210.56 421.988572a24.48 24.48 0 0 1 0 49.097143c-0.274285 0-0.48-0.205715-0.685715-0.205715l-58.62857-0.137143a33.6 33.6 0 0 1-37.508572-33.6l-0.274286-406.217142c0-18.651428 14.948572-33.325715 33.394286-33.325715 1.782857 0 3.565715-0.274285 5.28 0h57.257142l0.205715-0.068572H210.491428v0.137144a23.52 23.52 0 0 1 22.697144 23.451428 23.451428 23.451428 0 0 1-22.628572 23.382857v0.411428h-47.794285l1.371428 377.142858h46.422857zM900.8 457.234285c-18.102857 29.485715-44.434285 41.417143-76.251428 42.72a36.205715 36.205715 0 0 1-5.005715 0.342858l-192.685714 0.685714a385.371428 385.371428 0 0 1 21.325714 121.165715c0 26.605715-3.017143 52.457143-8.434285 77.417143h-0.48a97.44 97.44 0 0 1-94.628572 76.114285c-53.691428 0-89.554285-45.051428-89.554285-99.428572 0-3.017143-0.274285-5.965715 0-8.914285-2.742857-101.622857-85.508572-183.36-183.977143-194.537143v-51.428572l-0.685715-208.457143v-215.314285h10.011428l468.754287-0.205715 8.228571 0.205715c18.102857 0 28.32 4.525715 44.777142 15.085715 15.702857 10.148572 27.428572 24 35.177143 39.565713a34.011428 34.011428 0 0 1 4.8 10.491429l72.205715 322.834286a35.108572 35.108572 0 0 1 0.96 11.382857 101.005715 101.005715 0 0 1-14.537143 60.274285z m-30.651428-49.577142l-77.828572-344.845715-0.068572 0.068572a31.405715 31.405715 0 0 0-24.685713-19.131428c-1.371428 0.205715-2.811428 0-4.32 0l-447.222858 0.548571-0.137142 381.942857c83.725715 37.714285 145.165715 74.674285 176.777142 162.788572l0.205715-0.068572a255.771428 255.771428 0 0 1 8.16 31.062857c5.211428 27.428572 4.937143 54.514285 4.937143 54.514286-4.662857 35.657143 24.274285 49.645715 41.554285 49.645714 23.725715-0.822857 47.177143-31.542857 47.177143-49.028572 0 0 5.211428-25.851428 5.28-53.622857 0-34.971428-4.388572-53.28-4.388571-53.28h-0.411429c-5.485715-28.937143-15.222857-56.365715-28.594286-81.6l0.342858-0.274285a33.874285 33.874285 0 0 1-3.428572-14.948571c0-18.651428 17.828572-20.365715 36.342857-20.365715l223.817143-0.274285 13.714285-0.411429v-0.137143a32.16 32.16 0 0 0 29.211429-15.36 33.051428 33.051428 0 0 0 3.291428-27.154285l0.274287-0.068572zM280.502857-2.605715h0.274286c0.205715 0 0.342857 0.068572-0.274286 0.068572H280.228572c-0.137143-0.068572 0-0.068572 0.274285-0.068572z"  horiz-adv-x="1024" />
      
      <glyph glyph-name="biaoqian" unicode="&#58925;" d="M116.718177 688.264702A85.423891 85.423891 0 0 0 195.249399 779.507813h12.598894l303.72939-7.344647c19.887044-1.016951 38.757135-9.435046 52.37298-24.12434l319.492132-319.774617a83.276994 83.276994 0 0 0-1.073448-118.474801L585.984604 13.06568a85.02841 85.02841 0 0 0-118.418304-1.073448L148.130666 332.896796a76.836304 76.836304 0 0 0-24.12434 52.37298l-7.344646 302.994926zM213.10254 605.496183a83.898464 83.898464 0 0 1 83.841967-83.898464A83.728972 83.728972 0 0 1 380.729977 605.496183a83.898464 83.898464 0 0 1-83.78547 83.841967A83.728972 83.728972 0 0 1 213.159038 605.496183z"  horiz-adv-x="1024" />
      
      <glyph glyph-name="wenda" unicode="&#58924;" d="M804.201172 752.085938H215.632813c-40.078125 0-73.142578-32.642578-73.142579-72.931641v-501.082031A73.300781 73.300781 0 0 1 215.632813 105.035156h217.6875l55.582031-79.101562c11.601563-16.611328 30.480469-16.611328 42.134765 0l55.582032 79.101562h217.634765c40.183594 0 73.195313 32.695313 73.195313 72.984375V679.154297A73.300781 73.300781 0 0 1 804.148438 752.085938zM693.617188 311.226563H326.164063a36.755859 36.755859 0 0 0 0 73.458984h367.453125a36.755859 36.755859 0 0 0 0-73.458984z m-0.000001 183.726562H326.164063a36.755859 36.755859 0 0 0 0 73.458984h367.453125a36.755859 36.755859 0 0 0 0-73.458984z"  horiz-adv-x="1024" />
      
      <glyph glyph-name="wenzhang" unicode="&#58923;" d="M221.991071 805.875h450.683036l208.466518-213.709821v-550.96875A79.131696 79.131696 0 0 0 802.008929-37.875H221.991071a79.131696 79.131696 0 0 0-79.131696 79.131696V726.743304A79.131696 79.131696 0 0 0 221.991071 805.875z m63.28125-316.40625a36.883929 36.883929 0 1 1 0-73.828125h189.84375a36.883929 36.883929 0 1 1 0 73.828125h-189.84375z m0-210.9375a36.883929 36.883929 0 1 1 0-73.828125h295.3125a36.883929 36.883929 0 1 1 0 73.828125h-295.3125z"  horiz-adv-x="1024" />
      
      <glyph glyph-name="shaixuan" unicode="&#58930;" d="M635.319336 463.892578v-454.59668c0-11.469727-10.125-20.803711-22.623047-20.80371-12.498047 0-22.623047 9.333984-22.623047 20.80371V467.452148l0.158203 1.977539a18.430664 18.430664 0 0 0 5.616211 15.503907l205.664063 201.708984C797.319336 716.542969 768.763672 739.640625 734.038086 739.640625V739.798828c-1.02832-0.158203-1.977539-0.237305-3.084961-0.237305H233.404297A25.391602 25.391602 0 0 0 229.607422 739.87793v-0.316407c-34.804688 0-63.28125-23.097656-67.31543-52.839843l205.584961-201.788086a18.430664 18.430664 0 0 0 5.616211-15.1875l0.158203-1.423828v-279.94043c0-11.074219-10.125-19.933594-22.623047-19.933594-12.498047 0-22.623047 8.938477-22.623047 19.933594V463.892578L122.266602 666.155273l-0.791016 1.028321a20.487305 20.487305 0 0 0-3.401367 5.220703 18.193359 18.193359 0 0 0-0.711914 1.898437C117.283203 674.935547 116.966797 675.489258 116.887695 676.12207a17.006836 17.006836 0 0 0-0.237304 2.214844L116.492188 679.523438C116.492188 734.736328 167.117188 779.507813 229.607422 779.507813v-0.316407A25.391602 25.391602 0 0 0 233.404297 779.507813h497.62793c1.107422 0 2.056641-0.158203 3.08496-0.237305V779.507813c62.490234 0 113.115234-44.771484 113.115235-99.984376l-0.158203-1.186523c0-0.791016-0.079102-1.50293-0.237305-2.214844l-0.474609-1.819336a18.509766 18.509766 0 0 0-2.689453-5.378906 20.012695 20.012695 0 0 0-1.423829-1.740234l-0.791015-1.028321L635.240234 463.892578z m45.958008-26.261719c0-11.074219 10.125-20.012695 22.623047-20.012695h180.984375c12.498047 0 22.623047 9.017578 22.623046 20.012695 0 11.074219-10.125 20.012695-22.623046 20.012696H703.900391c-12.498047 0-22.623047-8.938477-22.623047-20.012696z m22.623047-225.202148h180.984375c12.498047 0 22.623047 8.938477 22.623046 19.933594 0 11.074219-10.125 20.012695-22.623046 20.012695H703.900391c-12.498047 0-22.623047-8.938477-22.623047-20.012695s10.125-19.933594 22.623047-19.933594z m180.984375-183.990234H703.900391c-12.498047 0-22.623047-8.938477-22.623047-19.933594 0-11.074219 10.125-20.012695 22.623047-20.012696h180.984375c12.498047 0 22.623047 8.938477 22.623046 20.012696s-10.125 19.933594-22.623046 19.933594z"  horiz-adv-x="1024" />
      
      <glyph glyph-name="shijian" unicode="&#58929;" d="M774.207919 646.208536A368.500509 368.500509 0 0 1 511.999691 754.787338a368.315116 368.315116 0 0 1-262.146429-108.578802A368.315116 368.315116 0 0 1 141.212662 384.000309c0-99.061934 38.500053-192.191277 108.578802-262.270025A368.438712 368.438712 0 0 1 511.937893 13.21328c99.061934 0 192.191277 38.623649 262.270026 108.640599a371.281412 371.281412 0 0 1 0 524.354657zM740.033714 156.028084a320.545387 320.545387 0 0 0-228.095821-94.550692 320.483589 320.483589 0 0 0-228.034023 94.427096A320.359993 320.359993 0 0 0 189.538571 384.000309c0 86.146186 33.556226 167.163152 94.427097 228.034023A320.359993 320.359993 0 0 0 511.999691 706.461429c86.146186 0 167.101355-33.556226 228.034023-94.427097a322.893705 322.893705 0 0 0 0-456.068046zM672.241486 293.157487L544.072769 367.253095V569.393824a30.898919 30.898919 0 0 1-61.797838 0v-216.292434c0-11.494398 14.213503-21.073063 23.483179-26.387677 2.595509-3.831466 9.640463-7.353942 13.904513-9.825856l127.48894-77.247298c14.769684-8.528102 30.775323-3.460679 39.303426 11.309005s0.617979 33.679822-14.213503 42.207923z"  horiz-adv-x="1024" />
      
      <glyph glyph-name="xiaoxi" unicode="&#58922;" d="M846.056522 709.545652a59.830435 59.830435 0 0 0 59.771738-59.771739v-469.760869a59.713044 59.713044 0 0 0-59.771738-59.77174H468.408696l-102.834783-94.930435c-25.141304-23.282609-66.013044-10.545652-73.565217 22.852175l-16.258696 72.07826H179.841304a59.713044 59.713044 0 0 0-59.752173 59.752174V649.773913a59.713044 59.713044 0 0 0 59.752173 59.771739h666.215218zM522.095652 485.25a50.556522 50.556522 0 1 1 0.019566-101.054348 50.556522 50.556522 0 0 1-0.019566 101.054348z m184.05 0a50.536956 50.536956 0 1 1 0-101.054348 50.536956 50.536956 0 0 1 0 101.054348z m-368.1 3.52174a50.536956 50.536956 0 1 1 0-101.054349 50.536956 50.536956 0 0 1 0 101.054349z"  horiz-adv-x="1024" />
      
    </font>
</defs>
</svg>
